Coleccion Peliculas 3D 1080p BluRay [UL, AA]

Descargar Coleccion Peliculas 3D 1080p BluRay [UL, AA]

Coleccion Peliculas 3D 1080p BluRay [UL, AA] DVDRip Español Latino Mega


1. Hosts Using – Uploaded, Aa,vg, ***********, ***********
2. Size – 500Mb
3. Todas las peliculas contienen subtitulos, si no hay se especificara en el post.
4. Si ves links muertos mandame MP
5. Si te sirvio el aporte da las gracias.
6. Actualizaciones diarias de peliculas nuevas.
7. Siempre online



Index:

1. Street Dance 2 3D 1080P
2. The prodigies 3D 1080p
3. Resident Evil Afterlife 3D 1080P



Convertir subtitulos a 3D

1:Para conseguir tus subtitulos, ya sea de version 3d, extendida, version rip o simplemente dvd full en esta pagina los encuentras todos



Spoiler



2. bajar el programa 3D Subtitler.

3.encotraran algo asi cuando descompriman



y asi es la interfaz



Ahora lo que tenemos que hacer es seguri estos pasos.

1- abrir .SRT archivo
2- elegir la carpeta de salida
3- Seleccionar el archivo jar comprimido dentro de la carpeta
4- Selecciona la fuente a gusto
5- Selecciona el tamaño de la fuente
6- Selecciona el tipo de fuente
7- al gusto..
8- Esta opción es para obtener la mejor calidad para los subtítulos
9- Selecciona el lenguaje de los subtitulos.
10- Ddejalo asi
11- la mejor calidad es -3 ( The Best is -3 )
12- Subtitulos posicion
13- Dejalo asi
14- Dejalo asi
15- SeleccionaVobSub
16- Selecciona Quality to Subtitle

Y el la otra pantalla….



1- ejemplo de subtitulo seleccionado
2- todas las letras en subs
3- numero de palabras en subs
4- cambiar la foto para ver subs en 16:9 y 21:9
5- probar Subtitle
6- empezar la conversion SRT a 3D sbutitulo

despues de dar click en el boton convertir el programa empezara a hacer su trabajo
espera mientras finaliza
y luego ve a la carpeta de salida y ya estan tus subtitulos en 3d.













Código:
http://www.imdb.com/title/tt1268799




Código:
General
Format : Matroska
File size : 8.44 GB
Duration : 1h 24mn

Audio
ID : 2
Format : DTS
Format/Info : Digital Theater Systems
Codec ID : A_DTS
Duration : 1h 24mn
Bit rate mode : Constant
Bit rate : 755 Kbps
Channel(s) : 6 channels
Channel positions : Front: L C R, Side: L R, LFE
Sampling rate : 48.0 KHz
Bit depth : 24 bits
Compression mode : Lossy
Stream size : 458 MiB (5%)
Language : English
Sub: No
Default : Yes

Forced : No






RapidGator.



Código:
https://safelinking.net/p/fd0b258795


aa.vg



Código:
https://safelinking.net/p/37bbf0f6e3




Filefactory



Código:
https://safelinking.net/p/b28e937e52


Uploaded.to



Código:
https://safelinking.net/p/683cf450e7
https://safelinking.net/p/aa6638b883
https://safelinking.net/p/855703fd8e
https://safelinking.net/p/4992f9f6e4
https://safelinking.net/p/713cb3607f
https://safelinking.net/p/ef553d37dd
https://safelinking.net/p/440ef2a647
https://safelinking.net/p/4ef6a66ac0
https://safelinking.net/p/0388512d05
https://safelinking.net/p/3ab4a4db95
https://safelinking.net/p/db76796fc1
https://safelinking.net/p/eb6b2ecc3d
https://safelinking.net/p/3950d18c85
https://safelinking.net/p/a724c8c685
https://safelinking.net/p/927acbd4e6
https://safelinking.net/p/62b454bfb9
https://safelinking.net/p/e45f737d44
https://safelinking.net/p/2539f959bb











Código:
http://www.imdb.com/title/tt1374990/


Código:
General
Format : Matroska
Format version : Version 2
File size : 7.49 GB
Duration : 1h 35mn

Audio
ID : 2
Format : AC-3
Format/Info : Audio Coding 3
Mode extension : CM (complete main)
Format settings, Endianness : Big
Codec ID : A_AC3
Duration : 1h 35mn
Bit rate mode : Constant
Bit rate : 640 Kbps
Channel(s) : 6 channels
Channel positions : Front: L C R, Side: L R, LFE
Sampling rate : 48.0 KHz
Bit depth : 16 bits
Compression mode : Lossy
Stream size : 437 MiB (6%)
Default : Yes
Forced : No
Language: English






Uploaded.to

[code]


Código:
https://safelinking.net/p/135ede3c31
https://safelinking.net/p/783086e155
https://safelinking.net/p/04cf2ed1ce
https://safelinking.net/p/c2d53d6214
https://safelinking.net/p/b9af5d9f4d
https://safelinking.net/p/69aa48d445
https://safelinking.net/p/40786b2148
https://safelinking.net/p/578496e2ec
https://safelinking.net/p/164f1caf3f
https://safelinking.net/p/278ab66ae5
https://safelinking.net/p/febe30759b
https://safelinking.net/p/c26320bded
https://safelinking.net/p/13cea1606f
https://safelinking.net/p/0ff9a19e75
https://safelinking.net/p/d49b4b4ff5
https://safelinking.net/p/cb3020d32c


aa.vg


Código:
https://safelinking.net/p/5967f4cf0b











Código:
http://www.imdb.com/title/tt1220634/


Código:
Movie name: Resident Evil Afterlife 2010 3D 1080p Half-SBS AC3.mkv
Size: 4 GB
Width, px: 1920
Height, px: 1080
Bitrate, kbps: 5643
Length, hour:min:sec: 01:36:50







Uploaded



Código:
subiendo…..


aa.vg



Código:
subiendo….











Código:
http://www.imdb.com/title/tt0800320/


Código:
General

Movie Name: Wrath Of The Titans 3D
Total Size: 11.4 GB
Video: 1080p (Width 1920 pixels | Height 1080 pixels)
Format: MKV
3D Format: Half-SBS

Audio #1
ID : 2
Format : DTS
Duration : 1h 39mn
Language : English
Default : Yes

Audio #2
ID : 3
Format : AC-3
Duration : 1h 39mn
Language : German








Uploaded



Código:
subiendo….


Aa.vg



Código:
subiendo…










Código:
http://www.imdb.com/title/tt1436562/
Nombre: RIO 3D.mkv
Tamañp: 7.76 GB
Nombre: RIO 3D.mkv
Width, px: 1920
Height, px: 1080
Bitrate, kbps: 11046
Duracion, hour:min:sec: 01:35:57






Uploaded



Código:
subiendo…


Aa.vg



Código:
subiendo…
Coleccion Peliculas 3D 1080p BluRay [UL, AA] DVDRip Español Latino Mega

cuevana 3d, cuevana peliculas 3d, cuevana aa, pelicula 3d cuevana, descargar peliculas blu ray mega, 3d por mega
Descargar Coleccion Peliculas 3D 1080p BluRay [UL, AA]






Recuerda:
-NO Ofender usuarios.
-NO Spam.
-NO Malas palabras.

Deja tú comentario